Catégories
Activités Physique & Danses

Producers Vault Bachata Pura MULTiFORMAT __HOT__

Downloadhttps://urlca.com/2oig6w

 

 

Downloadhttps://urlca.com/2oig6w

 

 

 

 

 

 

 

 

Producers Vault Bachata Pura MULTiFORMAT

 

producers vault bachata pura multimat rix” PERFORMER “Pura Vida Brasil’s producers” INDEX 00 01:53:27FILE “08 – Pura Vida Brasil – Dulcissima.wav” WAVE INDEX 01 00:00:00 TRACK 09 AUDIO TITLE “Pura Vida Brasil – Sobrenatural ” PERFORMER “Pura Vida Brasil’s producers” INDEX 00 05:00:62FILE “09 – Pura Vida Brasil – Sobrenatural.wav” WAVE INDEX 01 00:00:00 TRACK
10 AUDIO TITLE “Esta Mais” PERFORMER “Pura Vida Brasil’s producers” INDEX 00 06:12:08FILE “10 – Pura Vida Brasil – Esta Mais.wav” WAVE INDEX 01 00:00:00 http://hotelthequeen.it/2022/06/07/secure-my-files-keygen-full-version-mac-win-2022/

 

48db66ba5d

 

 

http://www.gcons.in/rocky-handsome-movie-in-hindi-dubbed-verified-download-movies/
https://sillageparfumerie.com/wp-content/uploads/2022/06/Esource_Wireless_Mouse_Driver.pdf
http://www.buzzthat.org/wowonder/upload/files/2022/06/ntb2UqdlV2cFBzOhnBlh_11_14e9dd77c0b756360c1a786b0fabd086_file.pdf
https://smartbizad.com/advert/bajirao-mastani-movie-download-khatrimaza-movies/
https://eventouritaly.com/en/pervasive-psql-v11-server-keygen-_top_-crack/
https://stormy-temple-04436.herokuapp.com/fidlav.pdf
https://damp-wave-67374.herokuapp.com/Sts_Cdswin_Torrent.pdf
https://gamerized.com/upload/files/2022/06/TvvSRqs9EkVGXJbbHHNC_11_14e9dd77c0b756360c1a786b0fabd086_file.pdf
https://flagonsworkshop.net/upload/files/2022/06/gA4qRrJZK7wOZaEOuQNR_11_05ad52e7fe462380aa39b83045afba39_file.pdf
https://pra-namorar.paineldemonstrativo.com.br/upload/files/2022/06/AwJD3vjjD222i9J5V1rz_11_9d9c9f8dee9a4312460dcda5d0b8844a_file.pdf
https://elearning.archivagroup.it/blog/index.php?entryid=1856
https://roofingbizuniversity.com/wp-content/uploads/2022/06/standard_ahci_10_serial_ata_controller_driver_for_xp.pdf
https://bryophyteportal.org/frullania/checklists/checklist.php?clid=21872
http://bestoffers-online.com/?p=14688
http://jwmarine.org/kaspersky-anti-hacker-v1-9-37-64-bit/
https://australiaspage.com.au/wp-content/uploads/2022/06/kahlyasm.pdf
https://oregonflora.org/checklists/checklist.php?clid=22451
https://www.xn--gber-0ra.com/upload/files/2022/06/Dah8RlIL1rGykwD6JBXc_11_14e9dd77c0b756360c1a786b0fabd086_file.pdf
https://gamersmotion.com/supreme-ruler-ultimate-activation-code-portable-edition-verified/
https://rackingpro.com/warehousing/9261/